Torrent Details

Guardians of the Galaxy Vol 2 2017 3D 1080p BluRay x264-VETO
Guardians of the Galaxy Vol 2 2017 3D 1080p BluRay x264-VETO
Size9.8 GB in 2 files
ReleasesAdded on 30.08.2017 at 11:51 into the Movies category by Unknown.
Status0 seeds & 0 peers.
Hash9d11bf17b61279c34a92ad7c109386b42f456384
Rating
  • YourBT Visitors

Status This torrent has been verified.
*

Torrent Description

Guardians.of.the.Galaxy.Vol.2.2017.3D.1080p.BluRay.x264-VETO

ImDb: http://www.imdb.com/title/tt3896198



Complete name : guardians.of.the.galaxy.vol.2.2017.3d.1080p.bluray.x264-veto.mkv
Format : Matroska
Format version : Version 4 / Version 2
File size : 9.84 GiB
Duration : 2 h 15 min
Overall bit rate : 10.4 Mb/s
Encoded date : UTC 2017-08-24 15:03:52
Writing application : mkvmerge v14.0.0 ('Flow') 64bit
Writing library : libebml v1.3.4 + libmatroska v1.4.5

Video
ID : 1
Format : AVC
Format/Info : Advanced Video Codec
Format profile : [email protected]
MultiView_Count : 2
MultiView_Layout : Side by Side (left eye first)
Format settings, CABAC : Yes
Format settings, ReFrames : 4 frames
Codec ID : V_MPEG4/ISO/AVC
Duration : 2 h 15 min
Bit rate : 8 861 kb/s
Width : 1 920 pixels
Height : 1 016 pixels
Display aspect ratio : 1.890
Frame rate mode : Constant
Frame rate : 23.976 (23976/1000) FPS
Original frame rate : 23.976 (24000/1001) FPS
Color space : YUV
Chroma subsampling : 4:2:0
Bit depth : 8 bits
Scan type : Progressive
Bits/(Pixel*Frame) : 0.189
Stream size : 8.40 GiB (85%)
Writing library : x264 core 152 r2851 ba24899
Encoding settings : cabac=1 / ref=4 / deblock=1:1:1 / analyse=0x3:0x133 / me=umh / subme=8 / psy=1 / psy_rd=1.00:0.00 / mixed_ref=1 / me_range=16 / chroma_me=1 / trellis=1 / 8x8dct=1 / cqm=0 / deadzone=21,11 / fast_pskip=0 / chroma_qp_offset=-2 / threads=16 / lookahead_threads=2 / sliced_threads=0 / nr=0 / decimate=1 / interlaced=0 / bluray_compat=0 / constrained_intra=0 / bframes=3 / b_pyramid=2 / b_adapt=2 / b_bias=0 / direct=3 / weightb=1 / open_gop=0 / weightp=2 / keyint=250 / keyint_min=23 / scenecut=40 / intra_refresh=0 / rc_lookahead=50 / rc=2pass / mbtree=1 / bitrate=8861 / ratetol=1.0 / qcomp=0.60 / qpmin=0 / qpmax=69 / qpstep=4 / cplxblur=20.0 / qblur=0.5 / ip_ratio=1.40 / aq=1:1.00
Default : Yes
Forced : No

Audio
ID : 2
Format : DTS
Format/Info : Digital Theater Systems
Mode : 16
Format settings, Endianness : Big
Codec ID : A_DTS
Duration : 2 h 15 min
Bit rate mode : Constant
Bit rate : 1 509 kb/s
Channel(s) : 6 channels
Channel positions : Front: L C R, Side: L R, LFE
Sampling rate : 48.0 kHz
Frame rate : 93.750 FPS (512 spf)
Bit depth : 24 bits
Compression mode : Lossy
Stream size : 1.43 GiB (15%)
Language : English
Default : Yes
Forced : No

Menu
00:00:00.000 : en:00:00:00.000
00:09:56.179 : en:00:09:56.179
00:15:10.118 : en:00:15:10.118
00:22:14.083 : en:00:22:14.083
00:32:33.702 : en:00:32:33.702
00:36:52.127 : en:00:36:52.127
00:42:29.172 : en:00:42:29.172
00:48:03.464 : en:00:48:03.464
00:53:18.904 : en:00:53:18.904
00:58:45.939 : en:00:58:45.939
01:05:52.240 : en:01:05:52.240
01:11:12.435 : en:01:11:12.435
01:18:43.594 : en:01:18:43.594
01:23:55.322 : en:01:23:55.322
01:30:24.753 : en:01:30:24.753
01:39:36.179 : en:01:39:36.179
01:47:06.211 : en:01:47:06.211
01:54:21.605 : en:01:54:21.605
01:58:53.710 : en:01:58:53.710
02:07:13.459 : en:02:07:13.459





Similar Torrents

TORRENT NAMESIZESEEDSPEERS
40.2 GB00
21.9 GB00
22.4 GB00
3 GB00
4.4 GB00
1.9 GB00
36.7 GB00
16.6 GB00
16.5 GB00
950 MB00
950 MB00
950 MB00
950 MB00
950 MB00
950 MB00

Torrent Trackers

Files inside this torrent

FILENAMESIZE
icon ap719chc.nfo8.5 KB
icon guardians.of.the.galaxy.vol.2.2017.3d.1080p.bluray.x264-veto.mkv9.8 GB