Torrent Details

Photo Not Available
Baaghi 2 (2018) DesiPre Rip 720p Hindi H 264 ACC (Audio Cleaned) - LatestHDMovies
Size1.2 GB in 1 file
ReleasesAdded on 04.03.2018 at 3:58 into the Movies category by Unknown.
Status0 seeds & 0 peers.
Hashd5d44156f979901256f6e10630190a68bed37dbc
Rating
  • YourBT Visitors

Status This torrent has been verified.
*

Torrent Description

[[>>SAMPLE<<]]
http://openload.co/f/KYTzQEDGGgU/vlc-record-2018-04-03-06h24m11s-LatestHDMovies___TeamSHAHID-.mp4









General
Unique ID : 286817865430542794520537338224962529350 (0xD7C71C8F50443FDEDC217F9A14816846)
Complete name : C:UsersSHAHIDDownloadsVideoBaaghi 2 (2018) DesiPre Rip 720p Hindi H.264 ACC (Audio Cleaned) - LatestHDMovies.mkv
Format : Matroska
Format version : Version 4 / Version 2
File size : 1.15 GiB
Duration : 2 h 15 min
Overall bit rate : 1 216 kb/s
Movie name : LatestHDMovies | TeamSHAHID
Encoded date : UTC 2018-04-03 01:20:33
Writing application : mkvmerge v21.0.0 ('Tardigrades Will Inherit The Earth') 32-bit
Writing library : libebml v1.3.5 + libmatroska v1.4.8
Cover : Yes
Attachments : cover.jpg

Video
ID : 1
Format : AVC
Format/Info : Advanced Video Codec
Format profile : [email protected]
Format settings : CABAC / 5 Ref Frames
Format settings, CABAC : Yes
Format settings, ReFrames : 5 frames
Codec ID : V_MPEG4/ISO/AVC
Duration : 2 h 15 min
Bit rate : 1 088 kb/s
Width : 1 280 pixels
Height : 500 pixels
Display aspect ratio : 2.556
Frame rate mode : Constant
Frame rate : 25.000 FPS
Color space : YUV
Chroma subsampling : 4:2:0
Bit depth : 8 bits
Scan type : Progressive
Bits/(Pixel*Frame) : 0.068
Stream size : 1.03 GiB (89%)
Title : LatestHDMovies - TeamSHAHID
Writing library : x264 core 148 r2643 5c65704
Encoding settings : cabac=1 / ref=5 / deblock=1:0:0 / analyse=0x3:0x113 / me=hex / subme=7 / psy=1 / psy_rd=1.00:0.00 / mixed_ref=1 / me_range=16 / chroma_me=1 / trellis=1 / 8x8dct=1 / cqm=0 / deadzone=21,11 / fast_pskip=1 / chroma_qp_offset=-2 / threads=8 / lookahead_threads=8 / sliced_threads=1 / slices=8 / nr=0 / decimate=1 / interlaced=0 / bluray_compat=0 / constrained_intra=0 / bframes=0 / weightp=2 / keyint=250 / keyint_min=25 / scenecut=40 / intra_refresh=0 / rc=abr / mbtree=0 / bitrate=1088 / ratetol=1.0 / qcomp=0.60 / qpmin=0 / qpmax=69 / qpstep=4 / ip_ratio=1.40 / aq=1:1.00
Language : Hindi
Default : Yes
Forced : No

Audio
ID : 2
Format : AAC
Format/Info : Advanced Audio Codec
Format profile : LC
Codec ID : A_AAC-2
Duration : 2 h 15 min
Bit rate : 128 kb/s
Channel(s) : 2 channels
Channel positions : Front: L R
Sampling rate : 48.0 kHz
Frame rate : 46.875 FPS (1024 SPF)
Compression mode : Lossy
Delay relative to video : -43 ms
Stream size : 124 MiB (11%)
Title : LatestHDMovies - TeamSHAHID
Language : Hindi
Default : Yes
Forced : No






Similar Torrents

TORRENT NAMESIZESEEDSPEERS
1.3 GB1310
1.4 GB81
1.2 GB129
1.5 GB84
1024 MB00
1.3 GB207
1011 MB00
1.5 GB00
887 MB00
941 MB00
986 MB00
717 MB00
1.5 GB00
694 MB00

Torrent Trackers

Files inside this torrent

FILENAMESIZE
icon Baaghi 2 (2018) DesiPre Rip 720p Hindi H.264 ACC (Audio Cleaned) - LatestHDMovies.mkv1.2 GB