Torrent Details

Photo Not Available
[Prof] Jiro Dreams of Sushi (2011)
Size3 GB in 1 file
ReleasesAdded on 09.04.2018 at 17:17 into the Movies category by Unknown.
Status30 seeds & 1 peers.
Hash648de88113f944532f17c7f0346488c8e35748d0
Rating
  • YourBT Visitors

Status This torrent has been verified.
*

Torrent Description

Format : Matroska
Format version : Version 4 / Version 2
File size : 2.98 GiB
Duration : 1 h 22 min
Overall bit rate : 5 181 kb/s
Movie name : Jiro Dreams Of Sushi
Encoded date : UTC 2018-04-08 12:30:21
Writing application : mkvmerge v9.6.0 ('Slave To Your Mind') 64bit
Writing library : libebml v1.3.4 + libmatroska v1.4.5

Video
ID : 1
Format : HEVC
Format/Info : High Efficiency Video Coding
Format profile : Main [email protected]@Main
Codec ID : V_MPEGH/ISO/HEVC
Duration : 1 h 22 min
Bit rate : 4 103 kb/s
Width : 1 920 pixels
Height : 1 080 pixels
Display aspect ratio : 16:9
Frame rate mode : Constant
Frame rate : 23.976 (24000/1001) FPS
Color space : YUV
Chroma subsampling : 4:2:0
Bit depth : 10 bits
Bits/(Pixel*Frame) : 0.083
Stream size : 2.36 GiB (79%)
Writing library : x265 2.1+69-c97c64ab8b8e:[Windows][GCC 6.2.0][64 bit] 10bit
Encoding settings : cpuid=1173503 / frame-threads=2 / numa-pools=4 / wpp / no-pmode / no-pme / no-psnr / no-ssim / log-level=2 / input-csp=1 / input-res=1920x1080 / interlace=0 / total-frames=118632 / level-idc=0 / high-tier=1 / uhd-bd=0 / ref=4 / no-allow-non-conformance / no-repeat-headers / annexb / no-aud / no-hrd / info / hash=0 / no-temporal-layers / open-gop / min-keyint=23 / keyint=250 / bframes=4 / b-adapt=2 / b-pyramid / bframe-bias=0 / rc-lookahead=25 / lookahead-slices=4 / scenecut=40 / no-intra-refresh / ctu=64 / min-cu-size=8 / rect / no-amp / max-tu-size=32 / tu-inter-depth=1 / tu-intra-depth=1 / limit-tu=0 / rdoq-level=2 / signhide / no-tskip / nr-intra=0 / nr-inter=0 / no-constrained-intra / strong-intra-smoothing / max-merge=3 / limit-refs=3 / limit-modes / me=3 / subme=3 / merange=57 / temporal-mvp / weightp / no-weightb / no-analyze-src-pics / deblock=0:0 / sao / no-sao-non-deblock / rd=4 / no-early-skip / rskip / no-fast-intra / no-tskip-fast / no-cu-lossless / no-b-intra / rdpenalty=0 / psy-rd=2.00 / psy-rdoq=1.00 / no-rd-refine / analysis-mode=0 / no-lossless / cbqpoffs=0 / crqpoffs=0 / rc=crf / crf=18.0 / qcomp=0.60 / qpstep=4 / stats-write=0 / stats-read=0 / ipratio=1.40 / pbratio=1.30 / aq-mode=1 / aq-strength=1.00 / cutree / zone-count=0 / no-strict-cbr / qg-size=32 / no-rc-grain / qpmax=69 / qpmin=0 / sar=0 / overscan=0 / videoformat=5 / range=0 / colorprim=2 / transfer=2 / colormatrix=2 / chromaloc=0 / display-window=0 / max-cll=0,0 / min-luma=0 / max-luma=1023 / log2-max-poc-lsb=8 / vui-timing-info / vui-hrd-info / slices=1 / opt-qp-pps / opt-ref-list-length-pps / no-multi-pass-opt-rps / scenecut-bias=0.05
Default : Yes
Forced : No

Audio
ID : 2
Format : AAC
Format/Info : Advanced Audio Codec
Format profile : LC
Codec ID : A_AAC
Duration : 1 h 22 min
Bit rate : 1 051 kb/s
Channel(s) : 6 channels
Channel positions : Front: L C R, Side: L R, LFE
Sampling rate : 48.0 kHz
Frame rate : 46.875 FPS (1024 spf)
Compression mode : Lossy
Delay relative to video : 9 ms
Stream size : 620 MiB (20%)
Language : Japanese
Default : No
Forced : No

Text #1
ID : 3
Format : PGS
Muxing mode : zlib
Codec ID : S_HDMV/PGS
Codec ID/Info : Picture based subtitle format used on BDs/HD-DVDs
Duration : 1 h 18 min
Bit rate : 12.2 kb/s
Count of elements : 1726
Stream size : 6.90 MiB (0%)
Language : English
Default : Yes
Forced : No

Text #2
ID : 4
Format : PGS
Muxing mode : zlib
Codec ID : S_HDMV/PGS
Codec ID/Info : Picture based subtitle format used on BDs/HD-DVDs
Duration : 1 h 19 min
Bit rate : 12.9 kb/s
Count of elements : 1848
Stream size : 7.37 MiB (0%)
Language : English
Default : No
Forced : No

Menu
00:00:00.000 : en:Chapter 01
00:07:40.501 : en:Chapter 02
00:15:31.430 : en:Chapter 03
00:22:22.716 : en:Chapter 04
00:33:52.655 : en:Chapter 05
00:39:10.389 : en:Chapter 06
00:48:26.194 : en:Chapter 07
00:56:07.405 : en:Chapter 08
01:05:00.229 : en:Chapter 09
01:08:08.209 : en:Chapter 10
01:13:06.924 : en:Chapter 11
01:19:50.952 : en:Chapter 12



Similar Torrents

TORRENT NAMESIZESEEDSPEERS
6.6 GB00
1 GB00
1.8 GB00
3.3 GB00
6.6 GB00
219 MB40
986 MB00
270 MB00
476 MB00
202 MB00
255 MB00
255 MB00
1.5 GB00
135 MB00

Torrent Trackers

TRACKER URLSEEDSPEERS
Onlineudp://tracker.opentrackr.org:1337/announce301
Onlineudp://tracker.coppersurfer.tk:6969/announce251
Onlineudp://tracker.pirateparty.gr:6969/announce241

Files inside this torrent

FILENAMESIZE
icon [Prof] Jiro Dreams of Sushi.mkv3 GB