Torrent Details

Photo Not Available
游侠索罗 星球大战外传 国语 Solo A Star Wars Story Mandarin TS 720p
Size2.4 GB in 1 file
ReleasesAdded on 21.06.2018 at 15:27 into the Movies category by Unknown.
Status1 seeds & 3 peers.
Hash5a31edc311aa57ec39a2b908caa15acddf505c03
Rating
  • YourBT Visitors

Status This torrent has been verified.
*

Torrent Description

游侠索罗.星球大战外传.国语.Solo.A Star Wars Story.Mandarin.TS.720p










Format                      : MPEG-4
File size                   : 2.44 GiB
Duration                    : 2 h 6 min
Overall bit rate mode       : Variable
Overall bit rate            : 2 764 kb/s


Video
ID                          : 2
Format                      : AVC
Format/Info                 : Advanced Video Codec
Format profile              : [email protected]
Format settings             : CABAC / 6 Ref Frames
Format settings, CABAC      : Yes
Format settings, ReFrames   : 6 frames
Codec ID                    : avc1
Codec ID/Info               : Advanced Video Coding
Duration                    : 2 h 6 min
Bit rate mode               : Variable
Bit rate                    : 2 540 kb/s
Maximum bit rate            : 18.0 Mb/s
Width                       : 1 280 pixels
Height                      : 536 pixels
Display aspect ratio        : 2.40:1
Frame rate mode             : Constant
Frame rate                  : 29.970 (30000/1001) FPS
Standard                    : Component
Color space                 : YUV
Chroma subsampling          : 4:2:0
Bit depth                   : 8 bits
Scan type                   : Progressive
Bits/(Pixel*Frame)          : 0.124
Stream size                 : 2.24 GiB (92%)


Audio
ID                          : 1
Format                      : AC-3
Format/Info                 : Audio Coding 3
Codec ID                    : ac-3
Duration                    : 2 h 6 min
Bit rate mode               : Constant
Bit rate                    : 224 kb/s
Channel(s)                  : 2 channels
Channel positions           : Front: L R
Sampling rate               : 48.0 kHz
Frame rate                  : 31.250 FPS (1536 SPF)
Bit depth                   : 16 bits
Compression mode            : Lossy
Stream size                 : 202 MiB (8%)
Service kind                : Complete Main
Default                     : Yes
Alternate group             : 1
Encoded date                : UTC 2018-05-26 06:28:01
Tagged date                 : UTC 2018-05-26 06:28:01



Similar Torrents

No Similar Torrents Found

If we find similar torrents, we normally show them right here. We couldn't find anything for "".

Torrent Trackers

TRACKER URLSEEDSPEERS
Onlineudp://tracker.opentrackr.org:1337/announce13
Onlineudp://tracker.coppersurfer.tk:6969/announce13
Onlineudp://tracker.pirateparty.gr:6969/announce12
Onlineudp://tracker.open-internet.nl:6969/announce13

Files inside this torrent

FILENAMESIZE
icon 游侠索罗.星球大战外传.国语.Solo.A Star Wars Story.Mandarin.TS.720p.mp42.4 GB